osu file format v14

[General]
AudioFilename: mintea - Natsu ga kuru yo!.mp3
AudioLeadIn: 1500
PreviewTime: 118888
Countdown: 0
SampleSet: Soft
StackLeniency: 0.7
Mode: 0
LetterboxInBreaks: 1
WidescreenStoryboard: 0

[Editor]
DistanceSpacing: 0.9
BeatDivisor: 4
GridSize: 4
TimelineZoom: 2.199999

[Metadata]
Title:Natsu ga Kuru yo
TitleUnicode:夏がくるよ
Artist:mintea
ArtistUnicode:mintea
Creator:Kyubey
Version:Insane
Source:
Tags:Synchronicity C84 comiket LYDIA GRAVE 沖林仁之介 Jinnosuke Okibayashi teadrops aka
BeatmapID:409808
BeatmapSetID:169041

[Difficulty]
HPDrainRate:6
CircleSize:4
OverallDifficulty:7
ApproachRate:9
SliderMultiplier:1.7
SliderTickRate:2

[Events]
//Background and Video events
0,0,"bg.jpg",0,0
//Break Periods
2,158441,163465
2,209241,226994
//Storyboard Layer 0 (Background)
//Storyboard Layer 1 (Fail)
//Storyboard Layer 2 (Pass)
//Storyboard Layer 3 (Foreground)
//Storyboard Sound Samples
//Background Colour Transformations
3,100,163,162,255

[TimingPoints]
15830,352.941176470588,4,2,0,55,1,0
15830,-133.333333333333,4,2,0,55,0,0
27124,-133.333333333333,4,2,1,65,0,0
32418,-133.333333333333,4,2,2,65,0,0
32506,-133.333333333333,4,2,1,65,0,0
49712,-117.647058823529,4,2,1,75,0,0
60477,-117.647058823529,4,2,3,75,0,0
60565,-117.647058823529,4,2,1,75,0,0
63300,-117.647058823529,4,2,3,75,0,0
63388,-117.647058823529,4,2,1,75,0,0
69477,-117.647058823529,4,2,1,15,0,0
69829,-100,4,2,1,24,0,0
70182,-86.9565217391304,4,2,1,33,0,0
70535,-76.9230769230769,4,2,1,42,0,0
70888,-68.9655172413793,4,2,1,51,0,0
71241,-62.5,4,2,1,60,0,0
71594,-57.1428571428571,4,2,1,69,0,0
71947,-52.6315789473684,4,2,1,78,0,0
73712,-117.647058823529,4,2,0,65,0,0
96300,-133.333333333333,4,2,0,45,0,0
101594,-133.333333333333,4,2,2,45,0,0
101682,-133.333333333333,4,2,0,45,0,0
104771,-125,4,2,0,50,0,0
105477,-117.647058823529,4,2,0,55,0,0
106182,-111.111111111111,4,2,0,60,0,0
106888,-105.263157894737,4,2,0,65,0,0
107594,-117.647058823529,4,2,0,65,0,0
109006,-111.111111111111,4,2,0,70,0,0
110418,-105.263157894737,4,2,0,75,0,0
111829,-100,4,2,0,80,0,0
113241,-100,4,2,0,90,0,0
118359,-66.6666666666667,4,1,0,70,0,0
118888,-100,4,2,1,90,0,1
130094,-100,4,2,0,90,0,0
130182,-100,4,2,1,75,0,1
140065,-133.333333333333,4,2,0,75,0,1
140418,-100,4,2,1,75,0,1
140771,-80,4,2,0,75,0,1
141124,-66.6666666666667,4,2,1,75,0,1
141477,-100,4,2,1,75,0,0
164065,-133.333333333333,4,2,0,45,0,0
172535,-133.333333333333,4,2,0,50,0,0
173241,-133.333333333333,4,2,0,55,0,0
173947,-100,4,2,0,60,0,0
174653,-80,4,2,0,65,0,0
175359,-100,4,2,0,65,0,0
176771,-100,4,2,0,70,0,0
178182,-100,4,2,0,75,0,0
179594,-100,4,2,0,80,0,0
181006,-100,4,2,0,85,0,0
186653,-100,4,2,1,75,0,1
208888,-100,4,2,1,75,0,0
231829,-100,4,2,1,75,0,1
231918,-100,4,2,1,75,0,0
234741,-100,4,2,1,10,0,0
234829,-100,4,2,1,75,0,0
235094,-100,4,2,1,10,0,0
235182,-100,4,2,1,75,0,0
241800,-100,4,2,1,10,0,0
241888,-100,4,2,1,75,0,0
242153,-100,4,2,1,10,0,0
242241,-100,4,2,1,75,0,0
246035,-100,4,2,1,10,0,0
246124,-100,4,2,1,75,0,0
246388,-100,4,2,1,10,0,0
246477,-100,4,2,1,75,0,0
254065,-50,4,2,1,75,0,1
254418,-133.333333333333,4,2,1,50,0,0
259535,-133.333333333333,4,2,1,5,0,0
259624,-133.333333333333,4,2,1,50,0,0
259712,-133.333333333333,4,2,1,5,0,0
259888,-133.333333333333,4,2,1,50,0,0
270829,-133.333333333333,4,2,1,5,0,0
270918,-133.333333333333,4,2,1,50,0,0
271006,-133.333333333333,4,2,1,5,0,0
271182,-133.333333333333,4,2,1,50,0,0
275594,-133.333333333333,4,2,1,40,0,0
275947,-133.333333333333,4,2,1,45,0,0
276300,-133.333333333333,4,2,1,50,0,0
276653,-133.333333333333,4,2,1,55,0,0

[Colours]
Combo1 : 255,94,55
Combo2 : 173,255,95
Combo3 : 255,88,100
Combo4 : 17,254,176

[HitObjects]
122,121,15830,5,6,0:0:0:0:
156,182,16006,1,0,0:0:0:0:
190,243,16182,1,2,0:0:0:0:
173,58,16359,1,0,0:0:0:0:
208,120,16535,1,2,0:0:0:0:
242,181,16711,1,0,0:0:0:0:
280,240,16888,2,0,B|297:280|324:312,1,63.7500024318696,2|0,0:0|0:0,0:0:0:0:
388,296,17241,5,6,0:0:0:0:
450,262,17417,1,0,0:0:0:0:
511,227,17594,1,2,0:0:0:0:
325,245,17770,1,0,0:0:0:0:
387,210,17946,1,2,0:0:0:0:
448,176,18124,1,0,0:0:0:0:
508,140,18300,2,0,B|501:112|487:89|467:71,1,63.7500024318696,2|4,0:0|0:0,0:0:0:0:
412,68,18653,5,2,0:0:0:0:
344,56,18830,1,0,0:0:0:0:
276,44,19006,1,2,0:0:0:0:
432,148,19182,1,0,0:0:0:0:
364,136,19359,1,2,0:0:0:0:
296,124,19535,1,0,0:0:0:0:
228,108,19712,2,0,L|148:88,1,63.7500024318696,2|0,0:0|0:0,0:0:0:0:
96,100,20065,5,2,0:0:0:0:
72,168,20241,1,0,0:0:0:0:
96,232,20418,1,2,0:0:0:0:
160,324,20594,1,0,0:0:0:0:
184,256,20770,1,6,0:0:0:0:
155,191,20947,1,0,0:0:0:0:
96,232,21124,2,0,B|83:251|84:274|96:292,1,63.7500024318696,2|4,0:0|0:0,0:0:0:0:
160,324,21477,5,2,0:0:0:0:
228,344,21653,1,0,0:0:0:0:
296,332,21830,1,2,0:0:0:0:
348,284,22006,1,0,0:0:0:0:
360,216,22182,1,2,0:0:0:0:
340,148,22359,1,0,0:0:0:0:
296,92,22535,2,0,B|268:64|236:48,1,63.7500024318696,2|0,0:0|0:0,0:0:0:0:
172,52,22888,5,6,0:0:0:0:
188,80,23065,1,0,0:0:0:0:
128,136,23241,1,0,0:0:0:0:
92,104,23418,1,2,0:0:0:0:
44,184,23594,1,6,0:0:0:0:
99,210,23771,1,0,0:0:0:0:
102,286,23947,2,0,B|80:293|62:305|47:321,1,63.7500024318696,2|4,0:0|0:0,0:0:0:0:
172,268,24300,5,2,0:0:0:0:
240,252,24477,1,0,0:0:0:0:
192,200,24653,1,2,0:0:0:0:
351,323,24830,1,0,0:0:0:0:
316,264,25006,1,2,0:0:0:0:
278,322,25182,1,0,0:0:0:0:
356,196,25359,2,0,B|363:165|361:134|352:107,1,63.7500024318696,2|0,0:0|0:0,0:0:0:0:
332,68,25712,5,2,0:0:0:0:
272,32,25888,1,0,0:0:0:0:
212,68,26065,1,2,0:0:0:0:
212,136,26241,1,0,0:0:0:0:
272,176,26418,1,2,0:0:0:0:
332,136,26594,1,0,0:0:0:0:
272,104,26771,2,0,B|233:85|190:80|151:88,1,95.6250036478044,2|0,0:0|0:0,0:0:0:0:
84,144,27124,6,0,B|113:141|140:154|156:176,1,63.7500024318696,6|0,0:0|0:0,0:0:0:0:
172,244,27477,1,8,0:0:0:0:
116,304,27653,1,2,3:2:0:0:
92,224,27830,1,0,0:0:0:0:
192,324,28006,1,2,0:2:0:0:
240,200,28182,2,0,B|264:172|298:160|332:163,1,95.6250036478044,10|0,0:0|0:0,0:0:0:0:
316,260,28535,6,0,L|288:340,1,63.7500024318696,6|0,3:2|0:0,0:0:0:0:
384,312,28888,2,0,L|412:232,1,63.7500024318696,8|2,0:0|0:0,0:0:0:0:
436,144,29241,1,0,0:0:0:0:
372,88,29418,1,2,3:2:0:0:
360,168,29594,1,8,0:0:0:0:
448,64,29771,1,6,1:2:0:0:
296,56,29947,6,0,B|286:81|289:107|300:128,1,63.7500024318696,0|0,3:0|0:0,0:0:0:0:
256,184,30300,2,0,B|264:159|262:133|252:112,1,63.7500024318696,10|2,0:0|3:2,0:0:0:0:
180,152,30653,1,2,0:0:0:0:
256,268,30830,1,2,0:0:0:0:
160,72,31006,2,0,B|132:78|112:99|104:124,1,63.7500024318696,8|2,0:0|3:2,0:0:0:0:
256,184,31359,6,0,B|266:156|260:126|244:104,1,63.7500024318696,2|0,3:2|0:0,0:0:0:0:
160,72,31712,2,0,L|176:160,1,63.7500024318696,10|2,0:0|0:0,0:0:0:0:
188,216,32065,1,4,0:0:0:0:
212,296,32241,2,0,B|261:273|280:216|260:169,1,127.500004863739,2|6,3:2|0:0,0:0:0:0:
232,112,32771,5,0,3:0:0:0:
152,88,32947,1,0,0:0:0:0:
96,152,33124,1,8,0:0:0:0:
176,168,33300,1,2,3:2:0:0:
72,76,33477,1,0,0:0:0:0:
36,212,33653,1,2,0:2:0:0:
152,88,33830,1,10,0:0:0:0:
16,132,34006,1,2,0:2:0:0:
132,224,34182,6,0,B|160:228|186:223|209:212,1,63.7500024318696,6|2,3:2|0:0,0:0:0:0:
268,304,34535,2,0,B|294:316|314:335|329:357,1,63.7500024318696,8|2,0:0|0:0,0:0:0:0:
140,364,34888,1,4,0:0:0:0:
92,296,35065,1,2,3:2:0:0:
112,216,35241,1,8,0:0:0:0:
192,192,35418,5,6,0:2:0:0:
260,236,35594,2,0,B|273:259|277:285|272:308,1,63.7500024318696,0|2,3:0|0:0,0:0:0:0:
372,212,35947,2,0,L|320:168,1,63.7500024318696,8|2,0:0|3:2,0:0:0:0:
368,88,36300,2,0,L|432:60,1,63.7500024318696,2|2,0:0|0:0,0:0:0:0:
356,0,36653,2,0,L|297:25,1,63.7500024318696,8|2,0:0|3:2,0:0:0:0:
220,60,37006,6,0,B|184:64|155:86|140:116,1,95.6250036478044,2|0,3:2|0:0,0:0:0:0:
142,110,37359,2,0,L|55:119,1,63.7500024318696,10|2,0:0|0:0,0:0:0:0:
64,36,37712,5,4,0:0:0:0:
108,196,37888,1,2,0:0:0:0:
272,228,38065,1,10,0:0:0:0:
216,72,38241,1,2,0:0:0:0:
108,196,38418,6,0,L|112:280,1,63.7500024318696,4|0,0:0|0:0,0:0:0:0:
116,344,38771,1,8,0:0:0:0:
184,300,38947,1,2,3:2:0:0:
256,340,39124,1,0,0:0:0:0:
188,384,39300,1,2,0:2:0:0:
196,272,39477,1,10,0:0:0:0:
280,200,39653,1,2,0:2:0:0:
392,188,39830,6,0,B|398:220|388:250|368:272,1,63.7500024318696,6|0,3:2|0:0,0:0:0:0:
272,112,40182,2,0,B|239:105|217:79|212:49,1,63.7500024318696,10|2,0:0|0:0,0:0:0:0:
292,32,40535,1,2,0:0:0:0:
376,52,40712,1,2,3:2:0:0:
428,120,40888,2,0,B|430:148|421:173|404:192,1,63.7500024318696,8|6,0:0|3:2,0:0:0:0:
336,208,41241,5,0,3:0:0:0:
252,204,41418,1,0,0:0:0:0:
208,132,41594,1,8,0:0:0:0:
292,132,41771,1,2,3:2:0:0:
208,276,41947,1,0,0:0:0:0:
128,256,42124,1,2,0:0:0:0:
76,192,42300,1,8,0:0:0:0:
96,112,42477,1,2,3:2:0:0:
152,52,42653,2,0,L|228:84,1,63.7500024318696,0|0,3:0|0:0,0:0:0:0:
156,136,43006,2,0,L|80:104,1,63.7500024318696,8|2,0:0|0:0,0:0:0:0:
100,200,43359,6,0,L|180:236,2,63.7500024318696,4|0|8,0:0|3:0|0:0,0:0:0:0:
88,284,43888,1,4,0:0:0:0:
164,316,44065,1,0,3:0:0:0:
232,268,44241,1,0,0:0:0:0:
232,184,44418,1,8,0:0:0:0:
300,136,44594,1,2,3:2:0:0:
372,96,44771,2,0,B|394:144|370:200|320:216,1,127.500004863739,2|10,0:0|0:0,0:0:0:0:
300,136,45300,1,2,0:0:0:0:
296,52,45477,6,0,L|224:16,1,63.7500024318696,6|0,3:2|0:0,0:0:0:0:
220,104,45829,2,0,L|140:88,1,63.7500024318696,10|2,0:0|0:0,0:0:0:0:
88,196,46182,2,0,L|160:160,1,63.7500024318696,0|2,0:0|3:2,0:0:0:0:
156,248,46535,2,0,L|98:276,1,63.7500024318696,10|6,0:0|3:2,0:0:0:0:
56,340,46889,1,0,3:0:0:0:
136,368,47065,1,2,0:0:0:0:
164,288,47241,1,8,0:0:0:0:
84,259,47418,1,2,3:2:0:0:
244,280,47594,5,0,0:0:0:0:
314,232,47770,1,2,0:0:0:0:
267,162,47946,1,8,0:0:0:0:
196,208,48123,1,2,3:2:0:0:
348,156,48300,6,0,L|416:112,2,63.7500024318696,0|2|8,3:0|0:0|0:0,0:0:0:0:
400,212,48829,1,2,0:0:0:0:
400,288,49006,1,0,0:0:0:0:
360,356,49182,6,0,L|284:384,2,63.7500024318696,0|8|2,1:0|1:2|1:2,0:0:0:0:
488,276,49712,5,4,3:1:0:0:
472,176,49888,1,0,0:0:0:0:
380,128,50065,1,10,0:0:0:0:
284,156,50241,1,2,3:2:0:0:
252,252,50418,2,0,B|292:262|331:251|360:228,1,108.375002067089,2|0,0:0|0:0,0:0:0:0:
352,284,50771,2,0,L|328:352,1,72.2500013780594,10|2,0:0|0:0,0:0:0:0:
228,376,51124,6,0,B|192:385|157:379|127:364,1,72.2500013780594,6|2,3:2|0:0,0:0:0:0:
96,272,51477,2,0,B|132:263|167:269|197:284,1,72.2500013780594,10|2,0:0|0:0,0:0:0:0:
328,284,51829,2,0,B|337:248|331:213|316:183,1,72.2500013780594,2|2,0:0|3:2,0:0:0:0:
232,140,52182,2,0,B|223:176|229:211|244:241,1,72.2500013780594,10|6,0:0|3:2,0:0:0:0:
326,212,52535,5,0,3:0:0:0:
412,156,52712,1,2,0:0:0:0:
324,108,52888,1,10,0:0:0:0:
400,232,53065,1,2,3:2:0:0:
324,108,53241,5,0,0:0:0:0:
228,76,53418,1,0,0:0:0:0:
140,128,53594,1,10,0:0:0:0:
140,28,53771,1,2,3:2:0:0:
256,208,53947,6,0,B|279:233|294:263|300:293,1,72.2500013780594,0|0,3:0|0:0,0:0:0:0:
192,284,54300,1,10,0:0:0:0:
156,188,54477,1,2,0:0:0:0:
293,269,54653,6,0,L|392:288,2,72.2500013780594,4|0|8,0:0|3:0|0:0,0:0:0:0:
300,372,55182,1,4,0:0:0:0:
208,324,55359,1,0,3:0:0:0:
196,224,55535,1,0,0:0:0:0:
276,164,55712,1,10,0:0:0:0:
372,208,55888,1,2,3:2:0:0:
380,340,56065,2,0,B|346:325|328:289|334:253|355:229,1,108.375002067089,2|0,0:0|0:0,0:0:0:0:
372,208,56418,2,0,B|394:191|409:168|416:143,1,72.2500013780594,10|2,0:0|0:0,0:0:0:0:
356,24,56771,6,0,L|348:104,1,72.2500013780594,6|2,3:2|0:0,0:0:0:0:
204,88,57124,2,0,L|212:168,1,72.2500013780594,10|2,0:0|0:0,0:0:0:0:
340,184,57477,2,0,L|332:264,1,72.2500013780594,6|2,0:0|3:2,0:0:0:0:
224,244,57829,2,0,L|232:324,1,72.2500013780594,10|6,0:0|3:2,0:0:0:0:
328,348,58182,6,0,B|363:354|395:335|408:305,2,72.2500013780594,0|0|10,3:0|0:0|0:0,0:0:0:0:
228,324,58712,1,0,3:0:0:0:
148,260,58888,2,0,B|125:233|116:200|120:168,1,72.2500013780594,0|2,0:0|0:0,0:0:0:0:
180,112,59241,2,0,B|203:139|212:172|208:204,1,72.2500013780594,10|2,0:0|3:2,0:0:0:0:
172,32,59594,2,0,B|207:31|238:46|260:69,1,72.2500013780594,0|2,3:0|0:0,0:0:0:0:
324,112,59947,1,10,0:0:0:0:
332,12,60124,1,2,0:0:0:0:
224,200,60300,6,0,B|200:250|224:309|276:328,1,144.500002756119,2|10,0:0|0:0,0:0:0:0:
316,236,60829,1,0,3:0:0:0:
316,236,61006,6,0,L|396:216,1,72.2500013780594,4|0,0:0|0:0,0:0:0:0:
432,116,61359,2,0,L|352:136,1,72.2500013780594,8|2,0:0|3:2,0:0:0:0:
384,344,61712,2,0,B|427:364|478:344|498:298|488:258,1,144.500002756119,2|10,0:0|0:0,0:0:0:0:
416,168,62241,1,2,0:0:0:0:
416,168,62418,6,0,L|320:136,1,72.2500013780594,4|0,3:2|0:0,0:0:0:0:
252,224,62771,2,0,L|320:246,1,72.2500013780594,8|2,0:0|0:0,0:0:0:0:
340,56,63124,2,0,B|310:10|246:1|204:36,1,144.500002756119,2|10,0:0|0:0,0:0:0:0:
260,120,63653,1,2,3:2:0:0:
260,120,63829,6,0,B|231:151|192:168,1,72.2500013780594,4|0,3:2|0:0,0:0:0:0:
100,172,64182,1,10,0:0:0:0:
144,80,64359,1,0,3:2:0:0:
202,163,64535,1,2,0:0:0:0:
160,256,64712,1,2,0:0:0:0:
76,312,64888,2,0,B|72:340|77:366|88:389,1,72.2500013780594,10|0,0:0|3:0,0:0:0:0:
224,208,65241,6,0,B|228:180|223:154|212:131,1,72.2500013780594,0|0,3:0|0:0,0:0:0:0:
200,284,65594,2,0,B|228:288|254:283|277:272,1,72.2500013780594,8|2,0:0|0:0,0:0:0:0:
368,240,65947,1,0,0:0:0:0:
420,152,66124,1,2,3:2:0:0:
356,76,66300,1,10,0:0:0:0:
304,164,66477,1,2,3:2:0:0:
360,288,66653,6,0,B|360:333|324:369|277:369|245:345,1,144.500002756119,6|8,3:2|0:0,0:0:0:0:
268,252,67182,1,2,3:2:0:0:
268,252,67359,2,0,B|276:224|296:203|320:192,1,72.2500013780594,0|2,0:0|0:0,0:0:0:0:
212,188,67712,2,0,B|187:183|162:189|143:202,1,72.2500013780594,10|6,0:0|0:0,0:0:0:0:
88,288,68065,5,0,3:0:0:0:
188,292,68241,1,0,0:0:0:0:
276,244,68418,2,0,B|300:220|306:186|296:156,1,72.2500013780594,8|0,0:0|0:0,0:0:0:0:
240,48,68771,1,4,0:0:0:0:
220,148,68947,1,2,3:2:0:0:
368,132,69124,2,0,B|360:94|336:64,1,72.2500013780594,8|0,0:0|3:0,0:0:0:0:
360,256,69477,6,0,L|368:288,7,18.0625003445149,6|0|0|0|0|0|0|0,3:2|0:0|0:0|0:0|0:0|0:0|0:0|0:0,0:0:0:0:
284,244,69829,2,0,L|272:212,7,21.25,10|0|0|0|0|0|0|0,0:0|0:0|0:0|0:0|0:0|0:0|0:0|0:0,0:0:0:0:
232,296,70182,2,0,L|244:336,7,24.4375004661083,2|0|0|0|0|0|0|0,0:0|0:0|0:0|0:0|0:0|0:0|0:0|0:0,0:0:0:0:
160,264,70535,2,0,L|144:216,7,27.6249987354279,10|0|0|0|0|0|0|0,0:0|0:0|0:0|0:0|3:0|0:0|0:0|0:0,0:0:0:0:
100,184,70888,2,0,L|44:200,7,30.8125009403229,2|0|0|0|0|0|0|0,3:2|0:0|0:0|0:0|0:0|0:0|0:0|0:0,0:0:0:0:
124,112,71241,2,0,L|164:100,7,34,10|0|0|0|0|0|0|0,0:0|0:0|0:0|0:0|0:0|0:0|0:0|0:0,0:0:0:0:
232,156,71594,2,0,L|164:180,7,37.1875003546476,2|0|0|0|0|0|0|0,0:0|0:0|0:0|0:0|3:0|0:0|0:0|0:0,0:0:0:0:
240,80,71947,2,0,L|280:64,7,40.3749989218712,10|0|0|0|0|0|0|0,0:0|0:0|0:0|0:0|0:0|0:0|0:0|0:0,0:0:0:0:
404,152,73712,6,0,B|409:198|392:240,1,72.2500013780594,6|0,0:0|0:0,0:0:0:0:
282,246,74065,2,0,B|308:220|324:188,1,72.2500013780594,2|0,0:0|0:0,0:0:0:0:
228,188,74418,2,0,B|202:207|173:218|144:221,1,72.2500013780594,2|0,0:0|0:0,0:0:0:0:
40,124,74771,6,0,B|35:78|52:36,1,72.2500013780594,2|0,0:0|0:0,0:0:0:0:
160,28,75124,2,0,B|134:54|120:88,1,72.2500013780594,6|0,0:0|0:0,0:0:0:0:
216,88,75477,2,0,B|253:61|298:54,1,72.2500013780594,2|0,0:0|0:0,0:0:0:0:
372,184,75829,6,0,B|368:216|351:243|328:260,1,72.2500013780594,2|0,0:0|0:0,0:0:0:0:
260,252,76182,2,0,B|262:220|279:193|304:176,1,72.2500013780594,2|0,0:0|0:0,0:0:0:0:
444,152,76535,2,0,B|448:207|429:258|396:296,1,144.500002756119,6|2,0:0|0:0,0:0:0:0:
328,316,77065,1,0,0:0:0:0:
248,320,77241,1,2,0:0:0:0:
280,248,77418,1,2,0:0:0:0:
232,184,77594,1,0,0:0:0:0:
152,184,77771,1,2,0:0:0:0:
80,216,77947,6,0,B|98:244|124:263|153:272,1,72.2500013780594,6|2,0:0|0:0,0:0:0:0:
100,144,78300,2,0,B|82:116|56:97|27:88,1,72.2500013780594,2|2,0:0|0:0,0:0:0:0:
152,196,78653,2,0,B|180:178|199:152|208:123,1,72.2500013780594,2|2,0:0|0:0,0:0:0:0:
204,64,79006,1,2,0:0:0:0:
200,143,79182,1,2,0:0:0:0:
236,216,79359,6,0,B|250:244|273:263|300:272,1,72.2500013780594,4|0,0:0|0:0,0:0:0:0:
364,288,79712,2,0,B|395:292|424:285|447:270,2,72.2500013780594,0|2|0,0:0|0:0|0:0,0:0:0:0:
376,204,80241,1,2,0:0:0:0:
512,252,80418,1,2,0:0:0:0:
420,360,80594,1,2,0:0:0:0:
240,300,80771,6,0,B|245:258|266:223|296:200,1,108.375002067089,6|0,0:0|0:0,0:0:0:0:
300,168,81124,1,2,0:0:0:0:
224,132,81300,2,0,B|180:98|126:87|76:96,1,144.500002756119,,,0:0:0:0:
32,160,81829,2,0,B|61:173|92:177|121:172,1,72.2500013780594,2|2,0:0|0:0,0:0:0:0:
180,176,82182,6,0,B|205:159|224:136|237:111,1,72.2500013780594,4|0,0:0|0:0,0:0:0:0:
144,256,82535,2,0,B|130:283|125:312|127:340,1,72.2500013780594,2|0,0:0|0:0,0:0:0:0:
128,176,82888,2,0,B|126:145|115:117|99:94,1,72.2500013780594,2|0,0:0|0:0,0:0:0:0:
192,240,83241,2,0,B|208:266|231:285|256:297,1,72.2500013780594,2|0,0:0|0:0,0:0:0:0:
320,264,83594,5,4,0:0:0:0:
328,184,83771,1,0,0:0:0:0:
304,108,83947,2,0,L|280:36,1,72.2500013780594,2|0,0:0|0:0,0:0:0:0:
404,172,84300,2,0,L|432:80,1,72.2500013780594,2|2,0:0|0:0,0:0:0:0:
320,264,84653,1,2,0:0:0:0:
292,188,84829,1,2,0:0:0:0:
232,136,85006,6,0,L|64:112,2,144.500002756119,6|2|2,0:0|0:0|0:0,0:0:0:0:
384,156,86065,1,2,0:0:0:0:
263,205,86418,1,6,0:0:0:0:
355,85,86771,1,2,0:0:0:0:
336,215,87124,1,2,0:0:0:0:
280,75,87476,1,2,0:0:0:0:
384,156,87829,6,0,B|413:160|441:155|465:144,1,72.2500013780594,4|0,0:0|0:0,0:0:0:0:
512,188,88182,2,0,B|483:184|455:189|431:200,1,72.2500013780594,0|2,0:0|0:0,0:0:0:0:
400,264,88535,1,0,0:0:0:0:
384,344,88712,1,2,0:0:0:0:
460,316,88888,1,0,0:0:0:0:
400,264,89065,1,2,0:0:0:0:
320,276,89241,6,0,B|275:293|228:296,1,72.2500013780594,6|2,0:0|0:0,0:0:0:0:
252,144,89594,2,0,B|207:127|160:124,1,72.2500013780594,2|2,0:0|0:0,0:0:0:0:
76,288,89947,2,0,B|86:330|112:364,1,72.2500013780594,2|2,0:0|0:0,0:0:0:0:
120,172,90300,2,0,B|110:130|84:96,1,72.2500013780594,2|2,0:0|0:0,0:0:0:0:
172,92,90653,5,4,0:0:0:0:
248,116,90829,1,0,0:0:0:0:
328,112,91006,1,0,0:0:0:0:
404,88,91182,1,2,0:0:0:0:
472,44,91359,2,0,B|524:81|529:156|484:200,1,144.500002756119,2|0,0:0|0:0,0:0:0:0:
460,240,91888,1,0,0:0:0:0:
376,256,92065,6,0,B|324:254|276:236,1,72.2500013780594,6|0,0:0|0:0,0:0:0:0:
260,320,92418,2,0,B|208:322|160:340,1,72.2500013780594,2|0,0:0|0:0,0:0:0:0:
104,344,92771,2,0,B|93:297|119:250|166:233|206:244,1,144.500002756119,2|2,0:0|0:0,0:0:0:0:
264,224,93300,5,0,0:0:0:0:
348,244,93477,1,6,0:0:0:0:
368,160,93653,1,2,0:0:0:0:
284,139,93829,1,2,0:0:0:0:
168,308,94182,6,0,B|134:293|110:265|100:232,1,72.2500013780594,2|0,0:0|0:0,0:0:0:0:
96,112,94535,2,0,B|130:127|154:155|164:188,1,72.2500013780594,2|0,0:0|0:0,0:0:0:0:
284,224,94888,2,0,B|335:221|380:200,1,72.2500013780594,6|0,0:0|0:0,0:0:0:0:
344,83,95241,2,0,B|323:113|300:141,1,72.2500013780594,2|0,0:0|0:0,0:0:0:0:
260,72,95594,2,0,B|264:22|253:-26,1,72.2500013780594,2|0,0:0|0:0,0:0:0:0:
184,44,95947,2,0,B|178:94|190:142,1,72.2500013780594,2|0,0:0|0:0,0:0:0:0:
192,264,96300,6,0,B|194:305|204:344,2,63.7500024318696,0|0|0,1:0|0:0|1:0,0:0:0:0:
268,280,96829,1,0,1:0:0:0:
200,327,97006,1,0,1:0:0:0:
128,300,97182,1,0,0:0:0:0:
128,224,97359,2,0,B|146:196|178:184|207:188,1,63.7500024318696,0|0,1:0|0:0,0:0:0:0:
256,188,97712,6,0,B|298:208|344:208,1,63.7500024318696,0|0,1:0|0:0,0:0:0:0:
392,196,98065,2,0,B|350:176|304:176,1,63.7500024318696,0|0,1:0|1:0,0:0:0:0:
340,256,98418,1,0,1:0:0:0:
400,304,98594,1,0,0:0:0:0:
448,244,98771,1,0,1:0:0:0:
392,196,98947,1,0,0:0:0:0:
332,144,99124,6,0,L|280:104,1,63.7500024318696,0|0,1:0|0:0,0:0:0:0:
216,144,99477,2,0,L|268:184,1,63.7500024318696,0|0,1:0|0:0,0:0:0:0:
308,248,99829,2,0,B|313:288|289:324|251:337|217:328,1,127.500004863739,0|0,1:0|1:0,0:0:0:0:
232,252,100359,1,0,0:0:0:0:
168,212,100535,6,0,B|142:199|114:194|87:196,1,63.7500024318696,0|0,1:0|0:0,0:0:0:0:
192,140,100888,2,0,B|218:153|246:158|273:156,1,63.7500024318696,0|0,1:0|1:0,0:0:0:0:
328,140,101241,1,0,1:0:0:0:
317,61,101418,2,0,B|272:69|244:112|253:155,1,127.500004863739,0|0,0:0|0:0,0:0:0:0:
328,140,101947,1,0,1:0:0:0:
436,168,102124,6,0,L|456:108,1,63.7500024318696,0|8,0:0|0:0,0:0:0:0:
360,184,102477,2,0,L|384:260,1,63.7500024318696,0|0,1:0|1:0,0:0:0:0:
408,316,102829,1,0,0:0:0:0:
356,372,103006,1,8,0:0:0:0:
300,320,103182,1,0,0:0:0:0:
248,260,103359,6,0,B|211:243|172:240,1,63.7500024318696,0|0,1:0|0:0,0:0:0:0:
232,180,103712,2,0,B|195:163|156:160,1,63.7500024318696,8|0,0:0|1:0,0:0:0:0:
96,168,104065,1,0,1:0:0:0:
40,116,104241,1,0,0:0:0:0:
92,60,104418,1,8,0:0:0:0:
148,112,104594,1,0,0:0:0:0:
220,152,104771,6,0,B|266:160|312:156,1,68,4|0,1:2|0:0,0:0:0:0:
220,236,105124,2,0,B|254:236|287:241,1,68,8|0,0:0|1:0,0:0:0:0:
424,272,105477,6,0,L|464:176,1,72.2500013780594,4|0,1:2|0:0,0:0:0:0:
368,192,105829,2,0,L|328:96,1,72.2500013780594,8|0,0:0|0:0,0:0:0:0:
144,48,106182,6,0,B|144:76|153:101|168:120,1,76.4999976654053,4|0,1:2|0:0,0:0:0:0:
264,224,106535,2,0,B|264:196|255:171|240:152,1,76.4999976654053,8|0,0:0|1:0,0:0:0:0:
52,192,106888,6,0,L|140:208,1,80.7499978437424,4|0,1:2|0:0,0:0:0:0:
296,292,107241,2,0,L|208:308,1,80.7499978437424,8|0,0:0|0:0,0:0:0:0:
64,336,107594,6,0,B|26:300|19:244|43:201,1,144.500002756119,4|8,1:2|0:0,0:0:0:0:
120,164,108124,1,0,0:0:0:0:
136,172,108212,1,2,0:2:0:0:
152,180,108300,1,0,0:0:0:0:
168,188,108388,1,2,0:2:0:0:
184,196,108477,2,0,B|232:195|276:176,1,72.2500013780594,0|8,1:0|0:0,0:0:0:0:
316,136,108829,1,2,0:0:0:0:
344,56,109006,6,0,B|307:7|237:1|192:40,1,152.999995330811,0|8,1:0|0:0,0:0:0:0:
160,100,109535,1,0,0:0:0:0:
156,120,109624,1,0,1:0:0:0:
152,140,109712,1,0,0:0:0:0:
152,160,109800,1,2,0:0:0:0:
156,180,109888,2,0,B|169:207|189:227|213:240,1,76.4999976654053,0|8,1:0|0:0,0:0:0:0:
296,236,110241,1,2,0:0:0:0:
384,228,110418,6,0,B|410:207|429:180|441:151,1,80.7499978437424,4|0,1:2|0:0,0:0:0:0:
384,44,110771,2,0,B|358:65|339:92|327:121,1,80.7499978437424,8|0,0:0|0:0,0:0:0:0:
320,120,111035,1,2,0:0:0:0:
304,136,111124,1,0,0:0:0:0:
284,144,111212,1,2,0:0:0:0:
264,148,111300,2,0,B|220:136|176:144,1,80.7499978437424,0|8,1:0|0:0,0:0:0:0:
108,188,111653,1,2,0:0:0:0:
72,272,111829,6,0,B|85:301|107:323|133:336,2,85,0|0|8,1:0|0:0|0:0,0:0:0:0:
108,188,112359,1,0,0:0:0:0:
128,192,112447,1,0,1:0:0:0:
148,200,112535,1,0,0:0:0:0:
164,212,112624,1,2,0:0:0:0:
180,228,112712,2,0,B|230:223|272:196,1,85,0|8,1:0|0:0,0:0:0:0:
196,136,113065,1,2,0:0:0:0:
116,88,113241,5,4,1:2:0:0:
396,296,113594,1,0,1:0:0:0:
64,192,113947,1,0,1:0:0:0:
448,192,114300,1,0,1:0:0:0:
116,296,114653,5,4,1:2:0:0:
212,144,114829,1,0,1:0:0:0:
165,309,115006,1,0,1:0:0:0:
162,130,115182,1,0,1:0:0:0:
213,294,115359,1,0,1:0:0:0:
114,145,115535,1,0,1:0:0:0:
246,255,115712,1,0,1:0:0:0:
81,184,115888,1,0,1:0:0:0:
252,204,116065,5,4,1:2:0:0:
280,192,116153,1,0,1:0:0:0:
300,168,116241,1,2,1:2:0:0:
312,140,116329,1,0,1:0:0:0:
328,112,116418,1,4,1:2:0:0:
352,96,116506,1,0,1:0:0:0:
380,88,116594,1,2,1:2:0:0:
408,92,116682,1,0,1:0:0:0:
432,108,116771,5,4,1:2:0:0:
448,132,116859,1,0,1:0:0:0:
452,160,116947,1,2,1:2:0:0:
452,188,117035,1,0,1:0:0:0:
440,216,117124,1,4,1:2:0:0:
420,240,117212,1,0,1:0:0:0:
392,256,117300,1,2,1:2:0:0:
364,264,117388,1,0,1:0:0:0:
336,260,117477,5,4,1:2:0:0:
208,336,117653,1,0,1:0:0:0:
204,160,117829,1,0,1:0:0:0:
312,372,118006,1,4,1:2:0:0:
128,240,118182,1,4,1:2:0:0:
328,144,118359,6,2,B|329:87|283:42|228:42,2,127.500004863739,0|2|2,1:0|0:0|0:0,0:0:0:0:
288,356,118888,6,0,B|232:378|172:372,1,85,4|0,1:0|0:0,0:0:0:0:
108,284,119241,1,10,0:1:0:0:
204,192,119418,1,0,0:0:0:0:
232,164,119506,1,2,0:0:0:0:
244,128,119594,1,0,0:1:0:0:
240,92,119682,1,2,0:0:0:0:
220,60,119771,2,0,B|191:50|162:50|135:56,1,85,2|10,1:0|0:1,0:0:0:0:
52,168,120124,1,0,0:0:0:0:
128,324,120300,6,0,B|165:341|204:347|242:344,1,85,0|0,1:0|0:0,0:0:0:0:
340,264,120653,1,10,0:1:0:0:
332,116,120829,2,0,L|308:72,1,42.5,2|0,0:1|1:0,0:0:0:0:
388,72,121006,2,0,L|396:28,1,42.5,2|2,0:1|0:0,0:0:0:0:
464,64,121182,1,0,1:1:0:0:
448,208,121359,2,0,B|447:243|436:274|419:301,1,85,10|0,0:1|0:0,0:0:0:0:
396,148,121712,6,0,B|431:122|477:126|507:151,1,85,4|0,1:0|0:1,0:0:0:0:
476,344,122065,2,0,B|441:370|395:366|365:341,1,85,10|0,0:1|0:1,0:0:0:0:
360,340,122329,1,2,0:0:0:0:
328,320,122418,1,0,0:0:0:0:
288,320,122506,1,2,0:0:0:0:
256,340,122594,2,0,B|228:352|199:356|171:352,1,85,2|10,1:0|0:1,0:0:0:0:
200,220,122947,1,0,0:0:0:0:
360,128,123124,6,0,L|344:240,1,85,0|0,1:0|0:0,0:0:0:0:
120,220,123477,2,0,L|136:108,1,85,10|2,0:1|0:1,0:0:0:0:
148,104,123741,1,0,1:0:0:0:
164,76,123829,2,0,B|170:58|169:40|164:23,1,42.5,,,0:0:0:0:
256,96,124006,1,0,1:0:0:0:
356,120,124182,2,0,B|412:122|464:100,1,85,10|0,0:1|0:0,0:0:0:0:
388,32,124535,5,4,1:0:0:0:
324,208,124712,1,0,0:0:0:0:
264,88,124888,1,10,0:1:0:0:
464,164,125065,2,0,L|508:188,1,42.5,0|2,0:0|0:0,0:0:0:0:
408,216,125241,2,0,L|364:192,1,42.5,0|2,0:0|0:0,0:0:0:0:
472,252,125418,2,0,B|467:291|445:323|416:344,1,85,2|10,1:0|0:1,0:0:0:0:
296,368,125771,1,0,0:0:0:0:
237,222,125947,6,0,B|250:194|276:178|304:176,1,85,2|0,1:0|0:0,0:0:0:0:
320,272,126300,1,10,0:1:0:0:
176,296,126477,1,0,0:0:0:0:
156,264,126565,1,0,1:0:0:0:
148,228,126653,1,0,0:0:0:0:
152,188,126741,1,2,0:0:0:0:
168,152,126829,1,2,1:0:0:0:
304,76,127006,2,0,B|312:118|293:158|261:180,1,85,10|0,0:1|0:0,0:0:0:0:
180,312,127359,6,0,B|172:270|191:230|223:208,1,85,6|0,1:0|0:0,0:0:0:0:
439,184,127712,2,0,B|437:214|424:241|405:260,1,85,10|2,0:1|0:1,0:0:0:0:
380,284,127977,1,2,0:0:0:0:
344,300,128065,1,0,0:1:0:0:
308,304,128153,1,2,0:0:0:0:
268,300,128241,2,0,B|234:297|208:272|200:241,1,85,10|10,1:1|0:1,0:0:0:0:
240,132,128594,1,0,0:0:0:0:
344,52,128771,6,0,B|390:30|441:37|479:64,2,127.5,6|2|2,0:0|0:0|0:0,0:0:0:0:
280,100,129388,1,2,0:0:0:0:
216,152,129477,2,0,B|170:174|119:167|81:140,2,127.5,2|2|6,0:0|0:0|0:0,0:0:0:0:
344,52,130182,6,0,B|401:42|456:56,1,85,4|0,1:0|0:0,0:0:0:0:
368,224,130535,2,0,B|311:234|256:220,1,85,8|0,0:0|1:0,0:0:0:0:
136,112,130888,1,0,0:0:0:0:
316,80,131065,1,2,1:2:0:0:
200,280,131241,2,0,B|173:306|138:318|104:316,1,85,10|0,0:0|0:0,0:0:0:0:
136,144,131594,6,0,B|136:109|148:77|169:51,1,85,0|0,1:0|0:0,0:0:0:0:
360,176,131947,2,0,B|360:141|348:109|327:83,1,85,8|2,0:0|1:2,0:0:0:0:
176,268,132300,2,0,B|176:233|188:201|209:175,1,85,2|0,0:0|1:0,0:0:0:0:
236,336,132653,2,0,B|205:353|171:359|139:355,1,85,10|2,0:0|0:0,0:0:0:0:
88,248,133006,5,6,1:2:0:0:
180,140,133182,1,0,0:0:0:0:
176,264,133359,1,10,0:0:0:0:
88,156,133535,1,2,1:2:0:0:
144,40,133712,2,0,B|187:36|228:48,1,85,2|0,0:0|1:0,0:0:0:0:
428,80,134065,2,0,B|385:76|344:88,1,85,8|0,0:0|0:0,0:0:0:0:
236,212,134418,6,0,B|229:246|232:280|244:309,1,85,2|2,1:2|0:0,0:0:0:0:
272,128,134771,2,0,B|238:121|204:124|175:136,1,85,8|0,0:0|1:0,0:0:0:0:
352,164,135124,2,0,B|358:130|354:96|343:66,1,85,0|0,1:0|1:0,0:0:0:0:
288,216,135477,2,0,B|281:250|284:284|296:313,1,85,10|2,0:0|0:0,0:0:0:0:
472,136,135829,5,6,1:2:0:0:
452,52,136006,1,2,0:0:0:0:
372,28,136182,1,10,0:0:0:0:
300,76,136359,1,0,1:0:0:0:
179,338,136535,5,2,0:0:0:0:
262,364,136712,1,2,1:2:0:0:
324,308,136888,1,10,0:0:0:0:
319,221,137065,1,0,0:0:0:0:
144,92,137241,6,0,B|108:82|71:85|39:96,1,85,6|0,1:2|0:0,0:0:0:0:
104,192,137594,2,0,B|117:220|137:242|161:257,1,85,10|0,0:2|1:0,0:0:0:0:
288,256,137947,1,2,0:0:0:0:
184,176,138124,1,2,1:2:0:0:
344,124,138300,1,10,0:0:0:0:
172,44,138477,1,2,0:0:0:0:
348,4,138653,6,0,B|385:5|418:17|445:37,1,85,2|0,1:2|0:0,0:0:0:0:
364,100,139006,2,0,B|384:130|393:164|394:197,1,85,10|0,0:0|0:0,0:0:0:0:
300,172,139359,2,0,B|285:205|261:231|233:250,1,85,2|0,1:2|0:0,0:0:0:0:
192,384,139712,2,0,B|206:350|229:323|258:305,1,85,10|0,0:0|0:0,0:0:0:0:
408,236,140065,6,0,L|488:208,1,63.7500024318696,4|0,1:2|0:0,0:0:0:0:
320,184,140418,6,0,L|392:100,1,85,12|0,0:0|0:0,0:0:0:0:
224,196,140771,6,0,L|256:76,1,106.25,4|0,1:2|0:0,0:0:0:0:
136,252,141124,6,0,L|136:116,1,127.500004863739,12|0,0:0|0:0,0:0:0:0:
286,266,141477,5,4,1:2:0:0:
286,266,141653,2,0,B|282:306|263:340|235:364,1,85,0|8,0:0|0:0,0:0:0:0:
97,331,142006,1,0,0:0:0:0:
75,294,142094,1,2,0:0:0:0:
67,252,142182,1,0,0:0:0:0:
76,208,142271,1,2,0:0:0:0:
100,176,142359,1,0,1:0:0:0:
234,115,142535,2,0,B|269:112|300:100|326:81,1,85,10|2,0:0|0:0,0:0:0:0:
168,67,142888,6,0,B|155:100|154:135|163:166,1,85,0|0,1:0|0:0,0:0:0:0:
376,136,143241,2,0,B|389:103|390:68|381:37,1,85,8|0,0:0|0:0,0:0:0:0:
364,16,143506,1,0,1:0:0:0:
324,8,143594,1,0,0:0:0:0:
288,28,143682,1,2,0:0:0:0:
276,68,143771,1,0,1:0:0:0:
284,204,143947,2,0,L|289:298,1,85,10|2,0:0|0:0,0:0:0:0:
368,384,144300,6,0,B|388:348|388:348|380:208,1,170,4|8,1:2|0:0,0:0:0:0:
236,0,144829,2,0,L|237:42,1,42.5,0|2,0:0|0:0,0:0:0:0:
316,104,145006,2,0,L|314:61,1,42.5,0|2,0:0|0:0,0:0:0:0:
236,128,145182,2,0,B|247:164|281:185|315:184,1,85,0|8,1:0|0:0,0:0:0:0:
440,144,145535,1,2,0:0:0:0:
296,182,145712,6,0,L|116:212,1,170,0|8,1:0|0:0,0:0:0:0:
0,128,146241,1,0,0:0:0:0:
41,125,146329,1,0,1:0:0:0:
83,118,146418,6,0,B|113:124|143:115|164:96,2,85,6|0|10,0:0|1:0|0:0,0:0:0:0:
108,36,146947,1,4,0:0:0:0:
108,36,147124,6,0,B|141:15|178:7|213:8,1,85,0|0,1:0|0:0,0:0:0:0:
340,144,147477,2,0,B|307:165|270:173|235:172,1,85,8|0,0:0|0:0,0:0:0:0:
224,152,147741,1,2,0:0:0:0:
200,116,147829,1,0,0:0:0:0:
208,72,147918,1,2,0:0:0:0:
240,44,148006,2,0,B|274:33|309:33|342:40,1,85,0|10,1:0|0:0,0:0:0:0:
428,88,148359,1,2,0:0:0:0:
456,240,148535,6,0,B|442:288|420:333,1,85,0|0,1:0|0:0,0:0:0:0:
168,296,148888,2,0,B|202:259|245:234,1,85,8|0,0:0|0:0,0:0:0:0:
244,232,149153,1,0,1:0:0:0:
252,224,149241,2,0,B|203:212|161:188,1,85,0|0,0:0|1:0,0:0:0:0:
228,52,149594,2,0,B|277:64|319:88,1,85,10|2,0:0|0:0,0:0:0:0:
372,208,149947,6,0,B|317:245|246:234|204:189,1,170,4|8,1:2|0:0,0:0:0:0:
120,96,150477,1,0,0:0:0:0:
88,68,150565,1,2,0:0:0:0:
48,76,150653,1,0,0:0:0:0:
28,112,150741,1,2,0:0:0:0:
32,156,150829,2,0,B|45:187|67:212|93:229,1,85,0|10,1:0|0:0,0:0:0:0:
244,188,151182,1,2,0:0:0:0:
192,112,151359,6,0,B|151:152|145:213|175:261|219:283,1,170,0|8,1:0|0:0,0:0:0:0:
400,200,151888,2,0,L|372:140,1,42.5,0|0,0:0|1:0,0:0:0:0:
452,132,152065,2,0,L|480:192,1,42.5,0|2,0:0|0:0,0:0:0:0:
492,64,152241,1,0,1:0:0:0:
424,20,152418,2,0,B|392:25|366:45|352:72,1,85,10|2,0:0|0:0,0:0:0:0:
288,187,152771,5,4,1:2:0:0:
270,48,152948,1,0,0:0:0:0:
367,149,153124,1,8,0:0:0:0:
229,124,153301,1,0,0:0:0:0:
188,112,153388,1,2,0:0:0:0:
144,112,153477,1,0,0:0:0:0:
104,128,153565,1,2,0:0:0:0:
72,156,153653,1,0,1:0:0:0:
140,280,153829,2,0,B|163:252|170:217|164:184,1,85,10|2,0:0|0:0,0:0:0:0:
132,36,154182,5,0,1:0:0:0:
100,172,154359,1,0,0:0:0:0:
229,124,154535,1,8,0:0:0:0:
100,172,154712,2,0,L|48:196,1,42.5,0|0,0:0|1:0,0:0:0:0:
4,256,154888,1,0,0:0:0:0:
44,272,154977,1,2,0:0:0:0:
88,268,155065,2,0,L|176:224,1,85,0|2,1:0|0:0,0:0:0:0:
352,280,155418,2,0,B|331:298|316:320,1,42.5,2|0,0:0|0:0,0:0:0:0:
428,224,155594,6,0,B|420:164|420:164|384:112|384:112|376:48,1,170,4|8,1:2|0:0,0:0:0:0:
319,161,156124,2,0,L|344:196,1,42.5,0|2,0:0|0:0,0:0:0:0:
484,112,156300,2,0,L|459:77,1,42.5,0|2,0:0|0:0,0:0:0:0:
428,224,156477,1,0,1:0:0:0:
444,324,156653,2,0,B|475:359|512:384,1,85,10|2,0:0|0:0,0:0:0:0:
352,288,157006,6,0,B|306:281|261:285,1,85,0|0,1:0|0:0,0:0:0:0:
180,288,157359,1,8,0:0:0:0:
120,228,157535,1,0,0:0:0:0:
112,184,157624,1,0,1:0:0:0:
112,148,157712,2,0,B|113:111|134:80|164:64,2,85,2|0|8,0:0|1:0|0:0,0:0:0:0:
216,156,158241,1,6,0:0:0:0:
236,208,164065,6,0,B|243:234|258:256|277:273,1,63.7500024318696,4|0,1:2|0:0,0:0:0:0:
312,208,164418,2,0,B|305:182|290:160|271:143,1,63.7500024318696,0|0,1:0|0:0,0:0:0:0:
212,136,164771,1,0,1:0:0:0:
144,148,164947,1,2,1:2:0:0:
80,120,165124,2,0,B|75:85|96:53|129:41|159:48,1,95.6250036478044,2|0,1:2|0:0,0:0:0:0:
140,48,165477,6,0,L|224:52,1,63.7500024318696,0|0,1:0|0:0,0:0:0:0:
272,60,165829,1,0,1:0:0:0:
328,104,166006,1,0,0:0:0:0:
380,148,166182,2,0,B|403:166|430:175|457:176,1,63.7500024318696,0|2,1:0|1:2,0:0:0:0:
440,104,166535,2,0,B|399:111|364:132|339:161,1,95.6250036478044,2|0,1:2|0:0,0:0:0:0:
352,156,166888,6,0,L|272:168,1,63.7500024318696,4|0,1:2|0:0,0:0:0:0:
280,236,167241,2,0,L|360:224,1,63.7500024318696,0|0,1:0|0:0,0:0:0:0:
404,264,167594,2,0,B|401:297|387:326|367:349,1,63.7500024318696,0|0,1:0|1:0,0:0:0:0:
312,364,167947,5,2,1:2:0:0:
232,380,168124,1,2,0:2:0:0:
164,336,168300,5,2,1:2:0:0:
248,348,168477,1,0,0:0:0:0:
308,292,168653,5,2,1:2:0:0:
228,316,168830,1,0,0:0:0:0:
168,260,169006,5,2,1:2:0:0:
248,288,169183,1,0,1:0:0:0:
332,280,169359,2,0,B|326:242|307:210|280:188,1,95.6250036478044,2|0,1:2|0:0,0:0:0:0:
280,192,169712,6,0,L|316:128,1,63.7500024318696,4|0,1:2|0:0,0:0:0:0:
268,72,170065,1,0,1:0:0:0:
208,120,170241,1,0,0:0:0:0:
132,96,170418,2,0,L|168:32,1,63.7500024318696,0|2,1:0|1:2,0:0:0:0:
225,5,170771,2,0,B|267:-4|309:5,1,63.7500024318696,2|0,1:2|0:0,0:0:0:0:
336,56,171124,6,0,L|304:111,1,63.7500024318696,0|0,1:0|0:0,0:0:0:0:
392,116,171477,2,0,L|360:171,1,63.7500024318696,0|0,1:0|0:0,0:0:0:0:
248,152,171829,2,0,L|216:207,1,63.7500024318696,0|2,1:0|1:2,0:0:0:0:
304,228,172182,2,0,L|272:283,1,63.7500024318696,2|0,1:2|0:0,0:0:0:0:
208,328,172535,5,4,1:2:0:0:
136,352,172712,1,0,0:0:0:0:
36,264,172888,1,8,0:0:0:0:
108,288,173065,1,2,0:0:0:0:
212,208,173241,6,0,L|268:144,1,63.7500024318696,4|0,1:2|1:0,0:0:0:0:
232,60,173594,2,0,L|176:124,1,63.7500024318696,8|2,0:0|0:0,0:0:0:0:
344,176,173947,6,0,L|392:268,1,85,4|0,1:2|0:0,0:0:0:0:
444,196,174300,2,0,L|404:120,1,85,8|2,0:0|0:0,0:0:0:0:
280,40,174653,6,0,B|244:28|208:29|175:40,1,106.25,4|0,1:2|1:0,0:0:0:0:
128,136,175006,2,0,B|164:148|200:147|233:136,1,106.25,8|2,0:0|0:0,0:0:0:0:
392,80,175359,6,0,B|453:90|491:149|476:207,1,170,6|8,1:2|0:0,0:0:0:0:
240,236,175888,1,0,0:0:0:0:
200,246,175976,1,2,0:0:0:0:
169,274,176064,1,0,0:2:0:0:
164,317,176152,1,2,0:0:0:0:
183,357,176241,1,0,1:0:0:0:
400,356,176418,1,8,0:0:0:0:
368,204,176594,1,2,0:0:0:0:
252,312,176771,6,0,B|180:248|212:128,1,170,2|8,1:2|0:0,0:0:0:0:
307,9,177300,1,0,0:0:0:0:
344,34,177388,1,0,1:0:0:0:
370,70,177477,1,0,0:2:0:0:
380,112,177565,1,2,0:0:0:0:
371,152,177653,1,0,1:0:0:0:
260,268,177829,1,8,0:0:0:0:
216,116,178006,1,2,0:0:0:0:
376,264,178182,6,0,B|406:286|443:292|476:284,1,85,6|0,1:2|0:0,0:0:0:0:
392,168,178535,2,0,B|355:161|319:174|294:197,1,85,8|0,0:0|0:0,0:0:0:0:
280,216,178800,1,2,0:0:0:0:
240,228,178888,1,0,0:2:0:0:
196,228,178977,1,2,0:0:0:0:
152,224,179065,2,0,B|136:191|144:153|168:128,1,85,0|8,1:0|0:0,0:0:0:0:
316,72,179418,2,0,L|364:80,1,42.5,2|0,0:0|0:0,0:0:0:0:
312,0,179594,6,0,B|281:1|255:21|244:48,1,85,2|0,1:2|0:0,0:0:0:0:
256,208,179947,1,8,0:0:0:0:
356,272,180124,1,0,0:0:0:0:
372,232,180212,1,0,1:0:0:0:
372,188,180300,1,0,0:2:0:0:
360,148,180388,1,2,0:0:0:0:
332,116,180477,1,4,1:2:0:0:
152,148,180653,1,12,0:0:0:0:
264,300,180829,1,4,0:0:0:0:
440,320,181006,6,0,B|474:305|487:264|468:232,1,85,6|0,1:2|0:0,0:0:0:0:
392,100,181359,1,8,0:0:0:0:
256,208,181535,2,0,L|280:276,1,42.5,0|2,0:0|0:0,0:0:0:0:
312,152,181712,2,0,L|288:84,1,42.5,0|2,0:2|0:0,0:0:0:0:
232,136,181888,2,0,B|194:149|172:186|176:223,1,85,0|8,1:0|0:0,0:0:0:0:
192,328,182241,1,2,0:0:0:0:
80,216,182418,5,2,1:2:0:0:
260,264,182594,2,0,L|348:248,2,85,0|8|0,0:0|0:0|0:0,0:0:0:0:
216,272,183035,1,0,1:0:0:0:
172,280,183124,1,0,0:2:0:0:
132,288,183212,2,0,L|120:352,1,42.5,2|0,0:0|1:0,0:0:0:0:
152,188,183477,2,0,L|172:84,1,85,8|2,0:0|0:0,0:0:0:0:
312,32,183829,6,0,B|349:46|375:75|388:108,1,85,6|0,1:2|0:0,0:0:0:0:
280,308,184182,2,0,B|243:294|217:265|204:232,1,85,8|0,0:0|0:0,0:0:0:0:
212,212,184447,1,2,0:0:0:0:
228,172,184535,1,0,0:2:0:0:
264,148,184624,1,2,0:0:0:0:
304,156,184712,1,0,1:0:0:0:
164,336,184888,2,0,B|131:340|98:334|71:320,1,85,8|2,0:0|0:0,0:0:0:0:
56,184,185241,6,0,L|84:92,1,85,4|0,1:2|0:0,0:0:0:0:
248,240,185594,2,0,L|220:148,1,85,12|0,0:0|0:0,0:0:0:0:
212,116,185859,1,0,0:0:0:0:
200,76,185947,2,0,L|152:52,1,42.5,6|0,1:2|0:0,0:0:0:0:
324,120,186124,1,0,1:0:0:0:
452,168,186300,2,0,B|453:209|432:244|400:264,1,85,12|4,0:0|0:0,0:0:0:0:
296,312,186653,6,0,B|285:252|323:195|379:180,1,170,6|10,1:2|0:0,0:0:0:0:
284,128,187182,1,2,0:0:0:0:
320,104,187271,1,0,0:0:0:0:
332,64,187359,1,2,0:0:0:0:
308,28,187447,1,0,0:0:0:0:
268,16,187535,1,0,1:0:0:0:
132,44,187712,2,0,B|136:80|156:110|184:128,1,85,10|0,0:0|0:0,0:0:0:0:
220,236,188065,6,0,B|197:167|124:131|57:152,1,170,2|10,1:2|0:0,0:0:0:0:
96,300,188594,2,0,B|111:296|122:285|128:272,1,42.5,2|0,0:0|1:0,0:0:0:0:
204,328,188771,2,0,B|194:340|192:356|197:370,1,42.5,2|0,0:2|0:0,0:0:0:0:
300,296,188947,1,0,1:0:0:0:
372,228,189124,2,0,L|388:140,1,85,10|0,0:0|0:0,0:0:0:0:
328,0,189477,6,0,L|312:88,1,85,6|0,1:2|0:0,0:0:0:0:
284,248,189829,1,8,0:0:0:0:
208,144,190006,1,2,0:0:0:0:
176,116,190094,1,0,0:0:0:0:
136,108,190182,1,0,0:0:0:0:
96,120,190271,1,0,0:0:0:0:
68,152,190359,1,2,1:2:0:0:
148,280,190535,2,0,L|140:188,1,85,8|2,0:0|0:0,0:0:0:0:
132,24,190888,6,0,B|166:10|201:7|234:12,1,85,2|2,1:2|0:0,0:0:0:0:
416,96,191241,2,0,B|382:110|347:113|314:108,1,85,10|2,0:0|0:0,0:0:0:0:
292,92,191506,1,0,1:0:0:0:
248,88,191594,1,2,0:2:0:0:
216,116,191682,1,0,0:0:0:0:
204,156,191771,1,2,1:2:0:0:
268,276,191947,1,10,0:2:0:0:
392,328,192124,1,2,0:0:0:0:
268,276,192300,6,0,B|210:253|147:268|105:307,1,170,4|8,1:2|0:0,0:0:0:0:
264,176,192829,1,2,0:0:0:0:
300,152,192918,1,0,0:0:0:0:
328,120,193006,1,0,0:0:0:0:
348,80,193094,1,0,0:0:0:0:
352,36,193182,1,2,1:2:0:0:
264,176,193359,2,0,B|264:214|276:249|297:277,1,85,10|2,0:0|0:0,0:0:0:0:
348,144,193712,6,0,B|327:94|273:69|220:83|189:119,1,170,2|10,1:2|0:0,0:0:0:0:
100,224,194241,2,0,L|56:276,1,42.5,2|0,0:0|1:0,0:0:0:0:
112,336,194418,2,0,L|139:303,1,42.5,0|0,0:0|0:0,0:0:0:0:
192,236,194594,1,0,1:0:0:0:
280,152,194771,2,0,B|312:133|348:129|380:136,1,85,10|2,0:0|0:0,0:0:0:0:
464,44,195124,6,0,B|371:100|264:112,1,170,6|10,1:2|0:0,0:0:0:0:
124,80,195653,2,0,L|84:56,1,42.5,2|0,0:0|0:0,0:0:0:0:
120,196,195829,2,0,L|80:220,1,42.5,,,0:0:0:0:
220,144,196006,1,0,1:0:0:0:
312,216,196182,1,8,0:0:0:0:
416,164,196359,1,2,0:0:0:0:
512,240,196535,6,0,B|507:290|480:332,1,85,0|0,1:0|0:0,0:0:0:0:
328,336,196888,1,10,0:0:0:0:
328,244,197065,2,0,L|334:202,1,42.5,2|0,0:0|1:0,0:0:0:0:
240,256,197241,2,0,L|233:297,1,42.5,0|0,0:0|0:0,0:0:0:0:
264,180,197418,2,0,B|253:149|234:123|211:103,2,85,2|12|2,1:2|0:0|0:0,0:0:0:0:
132,120,197947,6,0,B|125:72|155:28|203:14|242:27,1,170,6|10,1:2|0:0,0:0:0:0:
368,112,198477,1,2,0:0:0:0:
384,152,198565,1,0,0:0:0:0:
388,196,198653,2,0,L|384:256,2,42.5,2|0|0,0:0|0:0|1:0,0:0:0:0:
264,236,199006,2,0,B|251:267|229:292|203:309,1,85,10|2,0:0|0:0,0:0:0:0:
76,348,199359,6,0,B|90:280|141:231|203:216,1,170,2|10,1:2|0:0,0:0:0:0:
364,200,199888,2,0,L|420:176,1,42.5,2|0,0:0|1:0,0:0:0:0:
300,148,200065,2,0,L|356:124,2,42.5,2|0|0,0:2|0:0|1:0,0:0:0:0:
244,96,200418,2,0,L|152:140,1,85,10|2,0:2|0:0,0:0:0:0:
236,0,200771,6,0,L|56:88,1,170,4|8,1:2|0:0,0:0:0:0:
96,288,201300,1,2,0:0:0:0:
140,284,201388,1,0,0:0:0:0:
180,268,201477,1,0,0:0:0:0:
216,244,201565,1,0,0:0:0:0:
240,208,201653,1,2,1:2:0:0:
328,28,201829,2,0,B|330:89|356:144,1,85,8|2,0:0|0:0,0:0:0:0:
452,296,202182,6,0,B|442:254|417:221|384:200,1,85,2|2,1:2|0:0,0:0:0:0:
220,268,202535,2,0,B|230:310|255:343|288:364,1,85,10|2,0:0|0:0,0:0:0:0:
220,348,202800,1,0,1:0:0:0:
180,356,202888,2,0,L|112:372,1,42.5,2|0,0:0|0:0,0:0:0:0:
144,228,203065,1,2,1:2:0:0:
224,136,203241,2,0,B|203:114|175:104|147:104,1,85,10|2,0:0|0:0,0:0:0:0:
315,194,203594,6,0,B|330:168|334:139|328:112,1,85,6|0,1:2|0:0,0:0:0:0:
340,29,203947,2,0,B|325:55|321:85|328:112,1,85,8|2,0:0|0:0,0:0:0:0:
364,136,204212,1,0,0:0:0:0:
404,152,204300,1,4,0:0:0:0:
448,152,204388,1,0,0:0:0:0:
488,136,204477,1,0,1:0:0:0:
448,260,204653,2,0,B|414:295|396:340,1,85,8|2,0:0|0:0,0:0:0:0:
484,352,205006,6,0,L|292:304,1,170,4|10,1:2|0:0,0:0:0:0:
236,200,205535,2,0,L|300:216,1,42.5,2|0,0:0|1:0,0:0:0:0:
192,112,205712,2,0,L|233:122,1,42.5,4|0,0:2|0:0,0:0:0:0:
140,188,205888,1,0,1:0:0:0:
80,80,206065,2,0,B|92:40|123:11|160:0,1,85,10|2,0:0|0:0,0:0:0:0:
320,44,206418,6,0,B|355:78|348:140|297:167|254:153,1,170,4|8,1:2|0:0,0:0:0:0:
356,216,206947,1,2,0:0:0:0:
384,248,207035,1,0,0:0:0:0:
396,288,207124,1,0,0:0:0:0:
396,332,207212,1,0,0:0:0:0:
376,372,207300,1,0,1:0:0:0:
256,312,207477,1,8,0:0:0:0:
144,368,207653,1,2,0:0:0:0:
32,288,207829,6,0,B|26:230|48:176,1,85,0|0,1:0|0:0,0:0:0:0:
164,64,208182,2,0,B|170:122|148:176,1,85,8|2,0:0|0:0,0:0:0:0:
152,164,208447,1,0,1:0:0:0:
148,180,208535,1,0,0:0:0:0:
144,196,208624,1,0,0:0:0:0:
140,212,208712,1,0,1:2:0:0:
112,340,208888,1,4,0:0:0:0:
306,213,227594,5,4,1:2:0:0:
205,170,227947,1,0,1:0:0:0:
315,268,228300,1,0,1:0:0:0:
196,115,228653,1,0,1:0:0:0:
246,300,229006,5,4,1:2:0:0:
147,182,229182,1,0,1:0:0:0:
265,83,229359,1,0,1:0:0:0:
364,201,229535,1,0,1:0:0:0:
264,328,229712,5,4,1:2:0:0:
120,200,229888,1,0,1:0:0:0:
248,56,230065,1,0,1:0:0:0:
392,184,230241,1,0,1:0:0:0:
320,312,230418,5,4,1:2:0:0:
288,332,230506,1,0,1:0:0:0:
252,340,230594,1,2,1:2:0:0:
216,332,230682,1,0,1:0:0:0:
184,308,230771,2,0,L|144:272,1,42.5,4|0,1:2|1:0,1:0:0:0:
160,160,230947,2,0,L|200:196,1,42.5,2|0,1:2|1:0,1:0:0:0:
300,128,231124,6,0,L|344:108,1,42.5,4|0,1:2|1:0,1:0:0:0:
204,60,231300,2,0,L|160:80,1,42.5,2|0,1:2|1:0,1:0:0:0:
60,136,231477,1,4,1:2:0:0:
48,172,231565,1,0,1:0:0:0:
52,212,231653,1,2,1:2:0:0:
64,248,231741,1,0,1:0:0:0:
84,280,231829,6,0,B|107:312|138:334|173:344,1,85,4|0,1:0|0:0,0:0:0:0:
128,196,232182,1,0,0:0:0:0:
252,316,232359,1,0,0:0:0:0:
280,328,232447,1,0,0:0:0:0:
320,332,232535,1,2,0:0:0:0:
360,332,232624,1,0,0:0:0:0:
396,324,232712,1,2,1:2:0:0:
408,172,232888,2,0,B|376:173|349:189|332:212,1,85,8|0,0:0|0:0,0:0:0:0:
396,324,233241,5,0,1:0:0:0:
408,172,233418,1,0,0:0:0:0:
296,72,233594,2,0,B|259:49|216:44,1,85,8|0,0:0|0:0,0:0:0:0:
176,48,233859,1,0,1:0:0:0:
140,64,233947,2,0,B|124:80|117:100|116:120,1,42.5,2|0,0:0|0:0,0:0:0:0:
120,240,234124,1,2,1:2:0:0:
260,244,234300,2,0,L|240:136,1,85,8|0,0:0|0:0,0:0:0:0:
88,332,234653,6,0,L|136:352,1,42.5,4|0,1:2|0:0,0:0:0:0:
204,376,234829,1,0,0:0:0:0:
384,280,235006,2,0,L|424:264,1,42.5,12|0,0:0|0:0,0:0:0:0:
308,308,235182,1,0,0:0:0:0:
268,312,235271,1,0,0:0:0:0:
232,300,235359,2,0,L|168:264,1,42.5,4|0,0:0|0:0,0:0:0:0:
120,240,235535,1,0,1:0:0:0:
84,136,235712,2,0,B|110:117|140:107|169:104,1,85,8|0,0:0|0:0,0:0:0:0:
342,139,236065,5,2,1:2:0:0:
239,271,236241,1,0,0:0:0:0:
244,104,236418,1,10,0:0:0:0:
338,242,236594,1,0,0:0:0:0:
302,229,236682,1,0,1:0:0:0:
266,216,236771,1,2,0:2:0:0:
231,203,236858,1,0,0:0:0:0:
195,190,236946,1,0,1:0:0:0:
400,148,237124,2,0,B|432:167|451:198|456:232,1,85,10|0,0:0|0:0,0:0:0:0:
304,296,237477,6,0,L|276:192,1,85,4|0,1:2|0:0,0:0:0:0:
400,148,237829,1,8,0:0:0:0:
384,316,238006,1,0,0:0:0:0:
368,350,238094,1,0,0:0:0:0:
339,374,238182,1,2,0:0:0:0:
302,381,238270,1,0,0:0:0:0:
265,370,238359,1,2,1:2:0:0:
128,184,238535,2,0,B|146:222|151:263|144:301,1,85,0|2,0:0|0:0,0:0:0:0:
64,100,238888,6,0,B|102:80|143:76|181:84,1,85,0|0,1:0|0:0,0:0:0:0:
252,164,239241,1,8,0:0:0:0:
352,72,239418,1,0,0:0:0:0:
352,72,239506,1,0,1:0:0:0:
352,72,239594,1,2,0:2:0:0:
352,72,239682,1,0,0:0:0:0:
352,72,239771,1,2,1:2:0:0:
408,220,239947,2,0,L|376:128,1,85,8|2,0:0|0:0,0:0:0:0:
336,312,240300,6,0,B|368:339|412:344|447:328,1,85,4|0,1:2|0:0,0:0:0:0:
476,132,240653,2,0,B|444:105|400:100|365:116,1,85,8|0,0:0|0:0,0:0:0:0:
364,124,240918,1,0,0:0:0:0:
332,148,241006,1,2,0:0:0:0:
296,156,241094,1,0,0:0:0:0:
256,152,241182,2,0,B|225:131|189:125|156:132,1,85,0|10,1:0|0:0,0:0:0:0:
184,256,241535,1,0,0:0:0:0:
324,332,241712,6,0,L|344:260,1,42.5,2|0,1:2|0:0,0:0:0:0:
404,228,241888,1,0,0:0:0:0:
236,264,242065,6,0,L|216:192,1,42.5,10|0,0:2|0:0,0:0:0:0:
156,160,242241,1,0,0:0:0:0:
156,160,242329,1,0,1:0:0:0:
156,160,242418,2,0,L|188:96,1,42.5,2|0,0:2|0:0,0:0:0:0:
268,104,242594,1,0,1:0:0:0:
344,192,242771,2,0,L|320:332,1,127.5,14|0,0:0|0:0,0:0:0:0:
316,356,243124,6,0,B|277:372|236:372|199:360,1,85,4|0,1:2|0:0,0:0:0:0:
128,276,243477,1,8,0:0:0:0:
240,156,243653,2,0,L|276:116,1,42.5,,,0:0:0:0:
212,60,243829,2,0,L|183:91,1,42.5,2|0,0:0|0:0,0:0:0:0:
352,100,244006,2,0,B|341:61|306:36|269:36,1,85,2|8,1:2|0:0,0:0:0:0:
240,156,244359,1,0,0:0:0:0:
280,308,244535,6,0,B|295:278|296:244|284:216,1,85,0|0,1:0|0:0,0:0:0:0:
68,120,244888,2,0,B|78:152|102:176|130:187,1,85,8|0,0:0|0:0,0:0:0:0:
160,196,245153,1,0,1:0:0:0:
160,196,245241,1,2,0:2:0:0:
160,196,245329,1,0,0:0:0:0:
160,196,245418,1,2,1:2:0:0:
148,104,245594,2,0,B|138:72|114:48|85:36,1,85,8|0,0:0|0:0,0:0:0:0:
52,304,245947,6,0,L|64:368,1,42.5,4|0,1:2|0:0,0:0:0:0:
96,232,246124,1,0,0:0:0:0:
144,308,246300,2,0,L|156:372,1,42.5,12|0,0:2|0:0,0:0:0:0:
228,216,246477,2,0,L|292:192,1,42.5,0|0,0:0|0:0,0:0:0:0:
280,240,246653,2,0,L|344:216,1,42.5,4|0,0:0|0:0,0:0:0:0:
224,300,246829,1,0,1:0:0:0:
248,120,247006,2,0,B|215:95|172:95|141:116,1,85,8|0,0:0|0:0,0:0:0:0:
312,204,247359,6,2,B|344:180|358:141|352:105,1,85,2|0,1:2|0:0,0:0:0:0:
220,296,247712,1,10,0:0:0:0:
160,352,247888,2,0,L|108:368,1,42.5,0|0,0:0|1:0,0:0:0:0:
40,308,248065,2,0,L|80:295,1,42.5,2|0,0:2|0:0,0:0:0:0:
164,256,248241,1,0,1:0:0:0:
248,168,248418,2,0,L|272:64,1,85,10|0,0:0|0:0,0:0:0:0:
328,268,248771,6,0,L|349:350,1,85,4|0,1:2|0:0,0:0:0:0:
464,296,249124,1,8,0:0:0:0:
408,176,249300,1,0,0:0:0:0:
408,176,249388,1,0,0:0:0:0:
408,176,249477,2,0,L|360:152,2,42.5,2|0|2,0:0|0:0|1:2,0:0:0:0:
349,350,249829,2,0,L|328:268,1,85,8|2,0:0|0:0,0:0:0:0:
308,92,250182,6,0,B|331:64|363:48|396:44,1,85,0|0,1:0|0:0,0:0:0:0:
408,176,250535,1,8,0:0:0:0:
288,216,250712,1,0,0:0:0:0:
288,216,250800,1,0,1:0:0:0:
288,216,250888,2,0,L|232:216,2,42.5,2|0|2,0:2|0:0|1:2,0:0:0:0:
378,47,251241,2,0,B|349:54|325:71|308:93,1,85,8|2,0:0|0:0,0:0:0:0:
160,224,251594,5,6,1:2:0:0:
128,316,251771,1,0,0:0:0:0:
352,160,251947,1,10,0:0:0:0:
384,68,252124,1,0,0:0:0:0:
228,144,252300,1,6,0:2:0:0:
136,112,252477,1,0,1:0:0:0:
284,240,252653,1,10,0:0:0:0:
376,272,252830,1,0,0:0:0:0:
236,100,253006,6,0,B|195:110|162:134|140:165,1,85,4|0,1:2|0:0,0:0:0:0:
240,116,253359,6,0,B|199:126|166:150|144:181,1,85,12|0,0:0|0:0,0:0:0:0:
244,132,253712,6,0,B|203:142|170:166|148:197,1,85,4|0,0:0|1:0,0:0:0:0:
248,148,254065,6,0,B|200:168|192:256|192:256|284:260|316:208,1,255,,,0:0:0:0:
364,168,254418,6,0,B|387:147|399:120|400:92,1,63.7500024318696,6|0,1:2|0:0,0:0:0:0:
356,48,254771,2,0,B|333:69|321:96|320:124,1,63.7500024318696,8|0,0:0|0:0,0:0:0:0:
323,101,255035,1,2,0:0:0:0:
323,101,255124,1,0,0:0:0:0:
323,101,255212,1,2,0:0:0:0:
323,101,255300,1,0,1:0:0:0:
288,168,255477,1,8,0:0:0:0:
136,300,255829,6,0,L|208:328,1,63.7500024318696,2|0,1:2|0:0,0:0:0:0:
244,264,256182,2,0,L|172:236,1,63.7500024318696,8|0,0:0|0:0,0:0:0:0:
184,240,256447,1,0,1:0:0:0:
184,240,256535,1,0,0:0:0:0:
184,240,256624,1,2,0:0:0:0:
184,240,256712,1,0,1:0:0:0:
195,323,256888,1,8,0:0:0:0:
195,323,257065,1,2,0:0:0:0:
316,304,257241,6,0,B|328:269|324:232,1,63.7500024318696,0|0,1:0|0:0,0:0:0:0:
276,184,257594,2,0,B|274:151|284:121,1,63.7500024318696,8|0,0:0|0:0,0:0:0:0:
284,121,257859,1,2,0:0:0:0:
284,121,257947,2,0,L|304:64,2,31.8750012159348,0|2|0,0:0|0:0|1:0,0:0:0:0:
208,140,258300,1,8,0:0:0:0:
84,284,258653,5,0,1:0:0:0:
84,284,258829,1,0,0:0:0:0:
152,320,259006,1,8,0:0:0:0:
204,268,259182,1,0,0:0:0:0:
204,268,259271,1,0,1:0:0:0:
204,268,259359,2,0,B|225:236|261:222|295:228,2,95.6250036478044,2|2|2,0:0|0:0|0:0,0:0:0:0:
276,308,260065,5,4,1:2:0:0:
332,360,260241,1,0,0:0:0:0:
396,320,260418,2,0,B|405:298|401:274|388:256,1,63.7500024318696,8|0,0:0|0:0,0:0:0:0:
389,259,260682,1,2,0:0:0:0:
389,259,260771,1,0,0:0:0:0:
389,259,260859,1,2,0:0:0:0:
389,259,260947,1,0,1:0:0:0:
344,196,261124,1,8,0:0:0:0:
212,92,261477,6,0,B|181:104|160:128,2,63.7500024318696,2|0|8,1:2|0:0|0:0,0:0:0:0:
288,84,262006,1,0,0:0:0:0:
288,84,262094,1,0,1:0:0:0:
288,84,262182,1,0,0:0:0:0:
288,84,262271,1,2,0:0:0:0:
288,84,262359,1,0,1:0:0:0:
212,92,262535,2,0,B|181:104|160:128,1,63.7500024318696,8|2,0:0|0:2,0:0:0:0:
140,200,262888,5,0,1:0:0:0:
140,200,263065,1,0,0:0:0:0:
180,264,263241,1,8,0:0:0:0:
136,328,263418,1,0,0:0:0:0:
136,328,263506,1,2,0:0:0:0:
136,328,263594,2,0,L|104:372,2,31.8750012159348,0|2|0,0:0|0:0|1:0,0:0:0:0:
180,264,263947,1,8,0:0:0:0:
328,184,264300,6,0,B|335:214|333:243|324:269,1,63.7500024318696,0|0,1:0|0:0,0:0:0:0:
260,216,264653,2,0,B|253:186|255:157|264:131,1,63.7500024318696,8|0,0:0|0:0,0:0:0:0:
258,152,264918,1,0,1:0:0:0:
258,152,265006,1,0,0:0:0:0:
258,152,265094,1,2,0:0:0:0:
258,152,265182,1,0,1:0:0:0:
320,108,265359,1,8,0:0:0:0:
440,280,265712,5,6,1:2:0:0:
440,280,265888,1,0,0:0:0:0:
388,336,266065,1,8,0:0:0:0:
320,308,266241,1,0,0:0:0:0:
304,300,266329,1,2,0:0:0:0:
284,296,266418,1,0,0:0:0:0:
264,300,266506,1,2,0:0:0:0:
248,308,266594,1,0,1:0:0:0:
184,348,266771,1,8,0:0:0:0:
96,164,267124,6,0,B|119:141|147:126|177:120,1,63.7500024318696,2|0,1:2|0:0,0:0:0:0:
148,128,267477,2,0,L|96:72,1,63.7500024318696,8|0,0:0|0:0,0:0:0:0:
88,72,267741,1,0,1:0:0:0:
68,68,267829,1,0,0:0:0:0:
48,68,267918,1,2,0:0:0:0:
32,76,268006,1,0,1:0:0:0:
4,148,268182,1,8,0:0:0:0:
4,148,268359,1,2,0:0:0:0:
28,248,268535,6,0,L|44:324,1,63.7500024318696,0|0,1:0|0:0,0:0:0:0:
108,276,268888,2,0,L|124:352,1,63.7500024318696,8|0,0:0|0:0,0:0:0:0:
140,344,269153,1,2,0:0:0:0:
160,348,269241,1,0,0:0:0:0:
176,344,269329,1,2,0:0:0:0:
188,336,269418,1,0,1:0:0:0:
244,288,269594,1,8,0:0:0:0:
308,160,269947,5,0,1:0:0:0:
368,208,270124,1,0,0:0:0:0:
376,132,270300,1,8,0:0:0:0:
308,160,270477,1,0,0:0:0:0:
308,160,270565,1,0,1:0:0:0:
308,160,270653,2,0,B|272:170|236:163|208:144,2,95.6250036478044,2|2|2,0:0|0:0|0:0,0:0:0:0:
376,132,271359,6,0,B|407:125|438:127|465:136,2,63.7500024318696,4|0|8,1:2|0:0|0:0,0:0:0:0:
308,160,271888,1,0,0:0:0:0:
288,168,271977,1,2,0:0:0:0:
268,172,272065,1,0,0:0:0:0:
248,168,272153,1,2,0:0:0:0:
232,160,272241,1,0,1:0:0:0:
180,104,272418,1,8,0:0:0:0:
68,164,272771,6,0,L|84:252,1,63.7500024318696,2|0,1:2|0:0,0:0:0:0:
96,300,273124,1,8,0:0:0:0:
112,376,273300,1,0,0:0:0:0:
112,376,273388,1,0,1:0:0:0:
112,376,273477,1,0,0:2:0:0:
112,376,273565,1,2,0:0:0:0:
112,376,273653,1,0,1:0:0:0:
184,348,273829,1,8,0:0:0:0:
184,348,274006,1,2,0:0:0:0:
184,348,274182,6,0,L|260:308,1,63.7500024318696,0|0,1:0|0:0,0:0:0:0:
220,244,274535,2,0,L|296:204,1,63.7500024318696,8|0,0:0|0:0,0:0:0:0:
344,176,274888,1,0,0:0:0:0:
288,124,275065,1,0,1:1:0:0:
340,68,275241,1,8,0:0:0:0:
276,24,275418,1,0,0:0:0:0:
164,60,275594,5,2,0:0:0:0:
124,132,275771,1,2,0:0:0:0:
116,216,275947,1,2,0:0:0:0:
144,296,276124,1,2,0:0:0:0:
204,352,276300,5,2,0:0:0:0:
224,320,276477,1,2,0:0:0:0:
224,280,276653,1,2,0:0:0:0:
208,244,276829,1,2,0:0:0:0:
